* Dettagli Torrent   globale  | Commenti (1) 


- Non si sevizia un paperino (1972) Lucio Fulci.H264.italian.english.Spanish.Ac3.MIRCrew -


Download via torrent:
Categoria bittorrent BDRip
Descrizione
Don't Torture a Duckling - Non si sevizia un paperino (1972) Lucio Fulci.H264.italian.english.Spanish.Ac3.MIRCrew


NO FOUND ONLY ORIGINAL RELEASE



My release is always in double track audio italian and Original audio
for select it use VLC or dvd player home
not use wmp

Non si sevizia un paperino

Don't Torture a Duckling  

(1972)








   GENERE: Giallo
   ANNO: 1972
   REGIA: Lucio Fulci
   
   PAESE: Italia
   DURATA: 110 Min
   FORMATO: CINESCOPE, TECHNISCOPE, TECHNICOLOR
   DISTRIBUZIONE: MEDUSA DISTRIBUZIONE



Tomas Milian, Irene Papas, Barbara Bouchet, Florinda Bolkan, Georges Wilson, Marc Porel, Antonello Campodifiori, Ugo D'Alessio, Virginio Gazzolo, Vito Passeri, Linda Sini, Andrea Aureli, Franco Balducci, Rosalia Maggio



Tutti gli abitanti di Accendura, un paesino aspro e sassoso della Lucania, dove spesso la magia e la superstizione si confondono ancora con la religione, sono profondamente sconvolti dalle crudeli uccisioni di tre bambini....................



A reporter and a promiscuous young woman try to solve a series of child killings in a remote southern Italian town that's rife with superstition and distrust of outsider...........













General
Unique ID                                : 36185605210113014696082669517160843475 (0x1B3918148327502DC922FEABC9C008D3)
Complete name                            : Non si sevizia un paperino -  Don't Torture a Duckling (1972).Ita.eng.spa.iCV-MIRCrew\Non si sevizia un paperino (1972).Ita.eng.spa.iCV-MIRCrew.mkv
Format                                   : Matroska
Format version                           : Version 2
File size                                : 1.35 GiB
Duration                                 : 1h 42mn
Overall bit rate                         : 1 879 Kbps
Encoded date                             : UTC 2017-10-13T13:32:40Z
Writing application                      : HandBrake 0.10.5 2016021100
Writing library                          : Lavf55.12.0

Video
ID                                       : 1
Format                                   : AVC
Format/Info                              : Advanced Video Codec
Format profile                           : [email protected]
Format settings, CABAC                   : Yes
Format settings, ReFrames                : 4 frames
Codec ID                                 : V_MPEG4/ISO/AVC
Duration                                 : 1h 42mn
Bit rate                                 : 1 290 Kbps
Width                                    : 720 pixels
Height                                   : 304 pixels
Display aspect ratio                     : 2.35:1
Frame rate mode                          : Variable
Frame rate                               : 23.976 fps
Color space                              : YUV
Chroma subsampling                       : 4:2:0
Bit depth                                : 8 bits
Scan type                                : Progressive
Bits/(Pixel*Frame)                       : 0.246
Stream size                              : 929 MiB (67%)
Writing library                          : x264 core 142 r2479 dd79a61
Encoding settings                        : cabac=1 / ref=1 / deblock=1:-1:-1 / analyse=0x1:0x111 / me=hex / subme=2 / psy=1 / psy_rd=1.00:0.15 / mixed_ref=0 / me_range=16 / chroma_me=1 / trellis=0 / 8x8dct=0 / cqm=0 / deadzone=21,11 / fast_pskip=1 / chroma_qp_offset=0 / threads=12 / lookahead_threads=2 / sliced_threads=0 / nr=0 / decimate=1 / interlaced=0 / bluray_compat=0 / constrained_intra=0 / bframes=3 / b_pyramid=2 / b_adapt=1 / b_bias=0 / direct=1 / weightb=1 / open_gop=0 / weightp=1 / keyint=240 / keyint_min=24 / scenecut=40 / intra_refresh=0 / rc_lookahead=10 / rc=abr / mbtree=1 / bitrate=1290 / ratetol=1.0 / qcomp=0.60 / qpmin=0 / qpmax=69 / qpstep=4 / vbv_maxrate=20000 / vbv_bufsize=25000 / nal_hrd=none / filler=0 / ip_ratio=1.40 / aq=1:1.00
Default                                  : Yes
Forced                                   : No
Color primaries                          : BT.601-6 525, BT.1358 525, BT.1700 NTSC, SMPTE 170M
Transfer characteristics                 : BT.709-5, BT.1361
Matrix coefficients                      : BT.601-6 525, BT.1358 525, BT.1700 NTSC, SMPTE 170M

Audio #1
ID                                       : 2
Format                                   : AC-3
Format/Info                              : Audio Coding 3
Mode extension                           : CM (complete main)
Codec ID                                 : A_AC3
Duration                                 : 1h 42mn
Bit rate mode                            : Constant
Bit rate                                 : 192 Kbps
Channel(s)                               : 2 channels
Channel positions                        : Front: L R
Sampling rate                            : 48.0 KHz
Bit depth                                : 16 bits
Compression mode                         : Lossy
Delay relative to video                  : 1mn 5s
Stream size                              : 141 MiB (10%)
Title                                    : Stereo
Language                                 : Italian
Default                                  : Yes
Forced                                   : No

Audio #2
ID                                       : 3
Format                                   : AC-3
Format/Info                              : Audio Coding 3
Mode extension                           : CM (complete main)
Codec ID                                 : A_AC3
Duration                                 : 1h 42mn
Bit rate mode                            : Constant
Bit rate                                 : 192 Kbps
Channel(s)                               : 2 channels
Channel positions                        : Front: L R
Sampling rate                            : 48.0 KHz
Bit depth                                : 16 bits
Compression mode                         : Lossy
Delay relative to video                  : 1mn 5s
Stream size                              : 141 MiB (10%)
Title                                    : Stereo
Language                                 : English
Default                                  : No
Forced                                   : No

Audio #3
ID                                       : 4
Format                                   : AC-3
Format/Info                              : Audio Coding 3
Mode extension                           : CM (complete main)
Codec ID                                 : A_AC3
Duration                                 : 1h 42mn
Bit rate mode                            : Constant
Bit rate                                 : 192 Kbps
Channel(s)                               : 2 channels
Channel positions                        : Front: L R
Sampling rate                            : 48.0 KHz
Bit depth                                : 16 bits
Compression mode                         : Lossy
Delay relative to video                  : 1mn 5s
Stream size                              : 141 MiB (10%)
Title                                    : Stereo
Language                                 : Spanish
Default                                  : No
Forced                                   : No



Info: Per scaricare devi usare un client come uTorrent o Transmission
AnnounceURL
udp://tracker.coppersurfer.tk:6969/announce
Hash cc8612a58c901bb29fff36347cf2107a4fafc95b
Peers seeds: 27 , leech: 1
Size 1.35 GB
Completato 608x
Aggiunto 10.02.18 - 11:02:15
Uploader   robbyrs
Votazione (Voti: 1)


Condividi questo bittorrent:


html/blog:


bbcode/forum:




Aggiungi Commento
Ultimi commenti
 jackal98jackal98   
grazie
11/02 09.39
Tutti commenti (1)