* Dettagli Torrent   globale  | Commenti (0) 


- Black.Lightning.1x04.Black.JesuITA.ENG.1080p.AMZN.WEB-DLMux.DD5.1.H.264-Morpheumkv -


Download via torrent:
Categoria bittorrent SerieTv
Descrizione
[center]

GIUSEPPEiCV & LITTLELINX
HANNO IL PIACERE DI PRESENTARE


STAGIONE 1
WEB-DLMUX 1080p
ITA - ENG Ac3 5.1
Sub ITA - ENG
Trovi tutte le nosre release su
IL CORSARO VERDE
www.icv-crew.org




.: Dati Serie :.


Nazione: Stati Uniti d'America
Anno: 2018
Genere: azione
Stagioni 1
Episodi: 13
Durata: 45 min circa
Lingua: ITA - ENG
Cast:
• Cress Williams: Jefferson Pierce / Fulmine Nero
• China Anne McClain: Jennifer Pierce / Lightning
• Nafessa Williams: Anissa Pierce / Thunder[1]
• Christine Adams: Lynn Pierce
• Marvin "Kondron" Jones III: Tobias Whale
• Damon Gupton: Bill Henderson
• James Remar: Peter Gambi

A retired superhero becomes a vigilante for justice.

Ex super eroe, il preside Jefferson Pierce torna in azione nei panni del leggendario Black Lightning dopo che una gang minaccia la sua famiglia.
Ha rinunciato ai suoi poteri per la famiglia, ma ora che il pericolo incombe sulla città sta per perdere le staffe.



.: Screenshot :.



.: Caratteristiche Tecniche :.
[spoiler]
Black.Lightning.1x01.The.Resurrection.ITA.ENG.1080p.AMZN.WEB-DLMux.DD5.1.H.264-Morpheumkv
Format                                   : Matroska
Format version                           : Version 4 / Version 2
File size                                : 2.94 GiB
Duration                                 : 42mn 18s
Overall bit rate mode                    : Variable
Overall bit rate                         : 9 950 Kbps
Encoded date                             : UTC 2018-01-23 12:28:48
Writing application                      : mkvmerge v7.6.0 ('Garden of Dreams') 64bit built on Feb  8 2015 15:12:28
Writing library                          : libebml v1.3.1 + libmatroska v1.4.2
_STATISTICS_WRITING_APP                  : mkvmerge v7.6.0 ('Garden of Dreams') 64bit built on Feb  8 2015 15:12:28
_STATISTICS_WRITING_DATE_UTC             : 2018-01-23 12:28:48
_STATISTICS_TAGS                         : BPS DURATION NUMBER_OF_FRAMES NUMBER_OF_BYTES
DURATION                                 : 00:42:18.624000000
NUMBER_OF_FRAMES                         : 79332
NUMBER_OF_BYTES                          : 121853952

Video
ID                                       : 1
Format                                   : AVC
Format/Info                              : Advanced Video Codec
Format profile                           : [email protected]
Format settings, CABAC                   : Yes
Format settings, ReFrames                : 4 frames
Codec ID                                 : V_MPEG4/ISO/AVC
Duration                                 : 42mn 18s
Bit rate mode                            : Variable
Bit rate                                 : 8 984 Kbps
Maximum bit rate                         : 15.0 Mbps
Width                                    : 1 920 pixels
Height                                   : 1 080 pixels
Display aspect ratio                     : 16:9
Frame rate                               : 23.976 fps
Color space                              : YUV
Chroma subsampling                       : 4:2:0
Bit depth                                : 8 bits
Scan type                                : Progressive
Bits/(Pixel*Frame)                       : 0.181
Stream size                              : 2.66 GiB (90%)
Default                                  : Yes
Forced                                   : No
Color primaries                          : BT.709-5, BT.1361, IEC 61966-2-4, SMPTE RP177
Transfer characteristics                 : BT.709-5, BT.1361
Matrix coefficients                      : BT.709-5, BT.1361, IEC 61966-2-4 709, SMPTE RP177

Audio #1
ID                                       : 2
Format                                   : AC-3
Format/Info                              : Audio Coding 3
Mode extension                           : CM (complete main)
Codec ID                                 : A_AC3
Duration                                 : 42mn 18s
Bit rate mode                            : Constant
Bit rate                                 : 384 Kbps
Channel(s)                               : 6 channels
Channel positions                        : Front: L C R, Side: L R, LFE
Sampling rate                            : 48.0 KHz
Bit depth                                : 16 bits
Compression mode                         : Lossy
Stream size                              : 116 MiB (4%)
Title                                    : ITA
Language                                 : Italian
Default                                  : Yes
Forced                                   : Yes

Audio #2
ID                                       : 3
Format                                   : AC-3
Format/Info                              : Audio Coding 3
Mode extension                           : CM (complete main)
Codec ID                                 : A_AC3
Duration                                 : 42mn 18s
Bit rate mode                            : Constant
Bit rate                                 : 384 Kbps
Channel(s)                               : 6 channels
Channel positions                        : Front: L C R, Side: L R, LFE
Sampling rate                            : 48.0 KHz
Bit depth                                : 16 bits
Compression mode                         : Lossy
Stream size                              : 116 MiB (4%)
Title                                    : ENG
Language                                 : English
Default                                  : No
Forced                                   : No

Text #1
ID                                       : 4
Format                                   : UTF-8
Codec ID                                 : S_TEXT/UTF8
Codec ID/Info                            : UTF-8 Plain Text
Title                                    : ITA - Forced
Language                                 : Italian
Default                                  : Yes
Forced                                   : Yes

Text #2
ID                                       : 5
Format                                   : UTF-8
Codec ID                                 : S_TEXT/UTF8
Codec ID/Info                            : UTF-8 Plain Text
Language                                 : Italian
Default                                  : No
Forced                                   : No

Text #3
ID                                       : 6
Format                                   : UTF-8
Codec ID                                 : S_TEXT/UTF8
Codec ID/Info                            : UTF-8 Plain Text
Language                                 : English
Default                                  : No
Forced                                   : No


[/spoiler]

.: Ringraziamenti :.




RESTATE IN SEED ALTRIMENTI

 

[/center]
Info: Per scaricare devi usare un client come uTorrent o Transmission
AnnounceURL
http://tracker.tntvillage.scambioetico.org:2710/announce
Hash ba389d5b687e59941917ee349d6806c6648ebaef
Peers seeds: 0 , leech: 0
Size 2.91 GB
Completato 0x
Aggiunto 13.02.18 - 18:02:02
Uploader   ppb1
Votazione (Voti: 0)


Condividi questo bittorrent:


html/blog:


bbcode/forum:




Aggiungi Commento